WK綜合論壇, WK综合论坛

查看:109 回復:3 發表於 2020-5-23 23:02:54
本主題由 212love 於 2020-5-25 11:30 解除高亮
累計簽到︰2001 天
連續簽到︰2 天
發表於 2020-5-23 08:48:33 | 顯示全部樓層 |閱讀模式
VIP精品區,資源無限好賺金任務區,輕松賺金幣
加入VIP,享受高級特權宣傳賺金又升級,超級棒

寶劍與權杖 The.Warrior.Queen.Of.Jhansi., 2019.[MKV / 6.78G] [複製鏈接]

影視分享
分類: 電影
題材: 劇情 
地區: 英國 
語言: 英语 
格式: MKV 
年份: 2019
資源: BT资源
1.jpg % A( Z6 S$ @# g  a8 s6 p2 T" }
  M6 U! z1 y' H2 D9 n3 _
◎译  名 宝剑与权杖 / Swords and Scepters / Swords and Sceptres: The Rani of Jhansi
4 _9 c8 z2 x2 b◎片  名 The Warrior Queen of Jhansi
0 d+ h+ k: i2 j" B7 {& M◎年  代 2019
7 w: m; i! y! E◎产  地 英国( }' p! h( s4 `1 C5 a+ u
◎类  别 剧情
, g. |" |( ^+ Y$ \& d1 K+ P, I) N- D. L/ z◎语  言 英语! C/ I1 {4 H6 q. G8 E. d% z: S( [
◎上映日期 2019-03-10(温哥华女性电影节)- }$ O/ ~& F/ D% y& ]: a* U( u9 k
◎IMDb评分 3.5/10 from 245 users
; |& C/ t3 I) s4 o* ]: L◎IMDb链接 https://www.imdb.com/title/tt69163483 C8 x8 g0 P0 ?, w* T) j
◎豆瓣评分 0/10 from 0 users0 C$ ?0 G3 {8 f& T, [' S
◎豆瓣链接 https://movie.douban.com/subject/27191803/
' G$ n' R- s" c◎片  长 103分钟* ~8 i* h$ U* z6 G3 P6 u8 d6 F
◎导  演 Swati Bhise# p, F. a  v) y! ~! @* u* x8 Z
◎编  剧 Devika Bhise / Swati Bhise / Olivia Emden, b3 l2 N: j* ^3 T
◎主  演 鲁伯特·艾弗雷特 Rupert Everett0 e" v$ s! T# {# r
      德里克·雅各比 Derek Jacobi
- g9 m  J# U' D) y      乔迪·梅 Jodhi May
: G4 Y0 @% e( \) ~1 z% L6 t' n      内森奈尔·帕克 Nathaniel Parker  g; W: T# y" ]5 u8 t$ p2 A7 \
      德维卡·贝斯 Devika Bhise* F! p0 y: ?- l! M, h: x, I
      Ben Lamb# Q+ ]3 }- V4 E8 m( M. j4 z9 c' `
& j# q' \3 B& I* t- c; _
+ I) A. N4 e! T3 H" D
◎标  签 印度 | 英国 | 2019年上海国际电影节 | 历史 | DerekJacobi | 剧情 | 2019SIFF | 首选5 \5 U5 K6 Y9 O
/ u8 k4 Q( M7 g# k6 Z( c  e1 v% r
◎简  介
* p7 U3 D" j1 m+ `$ g# J5 p, ], o# A' z) ]6 p4 }4 Z+ Y% W
  鲁伯特·艾弗雷特、德里克·雅各比加盟[宝剑与权杖](Swords and Scepters,暂译)。主演德维卡·贝斯、乔迪·梅、内森奈尔·帕克等。印度导演斯瓦蒂·贝斯执导,故事聚焦印度“詹西女王”拉克希米巴伊1857年反抗英国东印度公司的起义行动。艾弗雷特、雅各比分饰休·罗斯爵爷、帕默斯顿勋爵。
; ]2 v& c* G4 t  s( @1 U3 jVideo. }9 {3 n- o& T6 L
ID : 1
7 ?& N! l( _! o7 p/ _  M$ ?  N3 RFormat : AVC. F9 Y2 g3 U, s  j& i
Format/Info : Advanced Video Codec
4 R+ j/ N. W6 BFormat profile : [email protected]6 h4 b1 J8 o8 F, m9 K. c; M
Format settings : CABAC / 4 Ref Frames% n: m' b% v( J3 _
Format settings, CABAC : Yes! k4 K2 |' N- z/ \" Z; u
Format settings, Reference frames : 4 frames- t- l9 ]  w( P5 o
Codec ID : V_MPEG4/ISO/AVC
; k4 ?+ A& a2 Y2 t& BDuration : 1 h 42 min( O  D4 W- w8 r) f% Z0 K  E
Bit rate mode : Constant0 [. w' C& K6 M2 d) U* c
Bit rate : 8 813 kb/s8 A5 B, s  [; \- v4 b* b
Nominal bit rate : 10 000 kb/s, S$ y6 ]( n- T# Y1 ?4 L* B* ^/ }
Width : 1 920 pixels& @1 S9 ]. S! j% j6 O
Height : 800 pixels
1 E* v( V) G4 nDisplay aspect ratio : 2.40:1
& K) y) y6 [( G6 k$ DFrame rate mode : Constant! W7 S& l3 X6 S( @3 l! e8 \
Frame rate : 23.976 (24000/1001/189150) FPS
, g6 U4 L) j6 w+ ~/ ^9 CColor space : YUV
4 K9 L' q$ E% K- m2 `7 I8 i$ v" lChroma subsampling : 4:2:08 j' l8 S/ o3 K, f
Bit depth : 8 bits0 Z" o# Z4 m: |
Scan type : Progressive
- ^% e/ [" W7 Q6 A8 B( }6 HBits/(Pixel*Frame) : 0.2390 f# d9 c/ o" H) g
Stream size : 6.32 GiB (93%)
) M& l7 U, n3 l3 U. {) V$ pDefault : Yes; R- A, w+ }1 i  N; O
Forced : No
7 |7 J* X8 T3 T7 kColor range : Limited" W( p: [7 S( ?$ w8 U
Color primaries : BT.709
  k* r# t7 g. z) [7 e* T! J9 ZTransfer characteristics : BT.709
7 o6 K4 R% x  d7 yMatrix coefficients : BT.709
% o8 g. T0 P6 b" h; D
$ k0 L. f# p* c. t/ c6 L  xAudio
' [' g& w5 F6 e: E6 WID : 2  t1 j# L8 Z7 ^
Format : E-AC-3- {5 |* m* {! s2 h/ E
Format/Info : Enhanced AC-3
- o+ m! h& f6 v3 |' e# `, d+ c  L% [Commercial name : Dolby Digital Plus9 f/ p3 L: c! t( y
Codec ID : A_EAC3
, T" e* {) j8 f8 [- c8 iDuration : 1 h 42 min
9 w5 C( ~% m) q' g: ]Bit rate mode : Constant3 y5 L9 a; i* D& o' s
Bit rate : 640 kb/s
3 q7 n4 v( K1 n" D# Y# xChannel(s) : 6 channels* t) v0 ~. y0 ^' B8 l  W5 h
Channel layout : L R C LFE Ls Rs
2 w' L# s5 j5 ~% tSampling rate : 48.0 kHz
1 T2 x9 C% v- IFrame rate : 31.250 FPS (1536 SPF)  [6 {; m2 Y3 }. Q2 }! o& ^
Compression mode : Lossy3 D. p3 q/ F- u1 u. r8 R
Stream size : 470 MiB (7%)# K" p; l8 u4 j, `' x" \  w5 _
Language : English
$ \9 Q5 P( h6 H8 K6 u5 ~8 F, ]' YService kind : Complete Main
; w' n9 ~3 J3 aDefault : Yes! L8 X9 D' X6 H& N; d
Forced : No% \8 Y' V8 L( w' t2 N# E% C
7 t. D$ g: Q/ O' c. I( |
Text #1
+ O$ }- b( G1 N; Q% W4 bID : 3. |# Z3 `& `' U2 e9 l
Format : UTF-8" }; X3 L7 Y; d
Codec ID : S_TEXT/UTF8
8 A7 y% \- T* O0 l: yCodec ID/Info : UTF-8 Plain Text
4 P  h1 I$ C  \Duration : 1 h 35 min" {% _, W6 n$ B4 a( l' E
Bit rate : 46 b/s
" p+ a2 x! ^9 f, V& ?Count of elements : 1040; h: J, M0 h) u) K9 [3 b7 z# f
Stream size : 33.0 KiB (0%)" y* k% b! L. F/ o
Language : English. c$ B! m; T. ~. v* ^$ _
Default : No" b. y; w1 s) u) P* u
Forced : No
( s3 ?% i4 G' U9 C; b
+ M/ w, W; p) [) d( ]Text #25 q. i: X; d1 o0 E& q4 }* K
ID : 4
* @1 \! Z. S& x7 b! C- cFormat : UTF-8
: i; N& [: L0 i, NCodec ID : S_TEXT/UTF89 P. c8 G0 n' f
Codec ID/Info : UTF-8 Plain Text
# m& l$ d+ G5 N2 r' d- t& G4 U7 pDuration : 1 h 35 min6 c! Y5 p$ T) ]. v9 ?% O
Bit rate : 53 b/s
- F2 v* k0 k5 t" h" U; n( [- T/ T) `Count of elements : 12597 z8 J/ v" }, C$ d% D2 M: A" B
Stream size : 37.4 KiB (0%)/ I$ `0 Z$ x4 {
Title : SDH, m4 u, M0 O4 k5 P& O
Language : English: X, l/ o5 L8 J' s, r  ?# t
Default : No
# T3 A% s' c4 sForced : No

- e2 m' o( V* E; E4 `4 X" f4 X6 b( E: _2 v: W# F
: s: d6 Y# ?9 ~9 b. \3 P; k" u

寶劍與權杖. MKV.torrent

34.46 KB, 下載次數: 8

累計簽到︰2 天
連續簽到︰1 天
發表於 2020-5-23 09:46:01 | 顯示全部樓層
VIP精品區,資源無限好賺金任務區,輕松賺金幣
加入VIP,享受高級特權宣傳賺金又升級,超級棒
ddddddddddddddddddddddddddddddddddddd
累計簽到︰1244 天
連續簽到︰33 天
發表於 2020-5-23 10:09:10 | 顯示全部樓層
感謝大大的辛勞分享!我會繼續在WK關注大大的文章!
累計簽到︰1 天
連續簽到︰1 天
發表於 2020-5-23 23:02:54 | 顯示全部樓層
Thank you for sharing.

回復樓主 親!! 早上好! 心底有WK、心情就會飛翔,心中要個希望、笑容就會清爽!

 分享同時學會感恩,一句感謝的話語,就是最大的支持!  歡迎交流討論
您需要登錄後才可以回帖 登錄 | 立即注册

本版積分規則

c重要聲明:本論壇是以即時上載言論的方式運作,WK論壇對所有言論的真實性、立場及版權等,不負任何法律責任。而一切言論只代表發佈者個人意見,並非本網站之立場,讀者及用戶務必自行判斷內容之真實性。 由於本論壇受到「即時上載言論」運作方式所規限,故不能完全監察所有言論,若讀者及用戶發現有內容出現「真實性、立場及版權」等問題,請聯絡我們:[email protected]論壇有權刪除任何言論(刪除前或不會作事先警告及通知)| SiteMap[網站地圖]

發表新帖 返回頂部