WK綜合論壇, WK综合论坛

查看:244 回復:0 發表於 2020-10-17 12:38:04
本主題由 212love 於 前天 14:46 刪除回復
累計簽到︰2095 天
連續簽到︰2 天
發表於 2020-10-17 12:38:04 | 顯示全部樓層 |閱讀模式
VIP精品區,資源無限好賺金任務區,輕松賺金幣
加入VIP,享受高級特權宣傳賺金又升級,超級棒

正義的子彈 Bullets.of.Justice., 2019.[MKV / 5.80G] [複製鏈接]

影視分享
分類: 電影
題材: 犯罪 恐怖 其它 
地區: 美國 
語言: 英语 
格式: MKV 
年份: 2019
資源: BT资源
2.png
; k5 W5 B+ S4 V7 O0 g# U$ R
3 s9 ]& E3 r$ Z9 @◎译  名 正义的子弹. K- o; O5 W9 _6 p2 w: z
◎片  名 Bullets of Justice
: W2 ?$ e: z. {! V6 ?◎年  代 20194 @6 ?- p8 y' N) D/ v& J
◎产  地 美国, U! w: M& z) g6 e0 J' _5 ~+ P
◎类  别 恐怖 / 犯罪 / 黑色电影7 F9 g7 k+ b( k% I; ^7 [
◎语  言 英语
" I9 W3 f1 _8 _; \) U$ y( Q◎上映日期 2017-01-13
- x$ Z4 i* E1 X, o# {◎IMDb评分 6.2/10 from 83 users% w7 V) P. ?+ O  }$ O5 ?& i
◎IMDb链接 https://www.imdb.com/title/tt6421398/2 o' p, k/ N3 B/ ^/ T
◎豆瓣评分 /10 from 0 users
$ b: M0 o, ]; U" L  e6 e& i◎豆瓣链接 https://movie.douban.com/subject/26966754/$ E+ C9 `) A7 c
◎导  演 瓦列·米利夫 Valeri Milev
1 d) Q3 k! f- l( S& z$ @" s◎编  剧 瓦列·米利夫 Valeri Milev* c2 W/ s! @( t! V& {
◎主  演 丹尼·特雷霍 Danny Trejo& M" t0 G: O, L) D
& z! b7 z1 K! A# u* E% R  O6 |) U2 g
◎标  签 正义的子弹 | 很想看 | 恐怖 | 超刺激 | 惊悚 | 科幻 | 魔幻 | 66- ~) ]/ R( q( e: ?; B6 o- J

& M; a1 e% E1 p9 ~0 [3 {◎简  介
: @6 `  ]2 M' f; x& N$ r1 ^+ a3 _& l6 r. x
  在第三次世界大战期间,美国政府发起了一个秘密的项目代号为“陆军培根”,以创造超级士兵近交人与猪。25年后,一种叫做“枪口”已经占据食物链的顶端,吃和人类饲养动物一样。罗布正义是一个前赏金猎人工作的最后一行人类抵抗-一组幸存者躲藏在核掩体深处地下。他的任务是找出枪口上台并消灭他们。5 K& X0 D8 [: {+ U. w, \
Video
( T* @( U' V# f* s% b! T; @/ gID : 1( b' q/ S' J7 T8 j1 [4 h6 D
Format : AVC
/ D8 ]; u3 W' X4 ~/ I; [" iFormat/Info : Advanced Video Codec
6 }) b9 d  K+ C1 [0 zFormat profile : [email protected]
- k4 ^9 g, W" _Format settings : CABAC / 4 Ref Frames
2 b5 w: x, ~- h6 l" |Format settings, CABAC : Yes
: A4 y/ u$ X; p) WFormat settings, Reference frames : 4 frames1 l* Y: R+ z/ u# C8 c3 U
Codec ID : V_MPEG4/ISO/AVC
) S8 V( W3 r9 F& z3 H( @Duration : 1 h 19 min
" _2 ^6 K; S8 d) U' hBit rate mode : Constant
4 C; ?% ~' r- H* I. HBit rate : 10 000 kb/s
) B* R/ Q' @# W/ ?7 i2 f% dWidth : 1 920 pixels, e! f0 g" d: Y/ Z7 t
Height : 816 pixels# Y$ I+ q5 ~" y$ w% R& m! b
Display aspect ratio : 2.35:1
! u8 H' ~( R% W$ _7 @# Y' zFrame rate mode : Constant
5 X) z7 c6 A. I, `  d  LFrame rate : 24.000 FPS3 {- n0 H; b6 Y2 b. X
Color space : YUV; Z' |$ T. Q2 b) A
Chroma subsampling : 4:2:0: `) i! c, c  a4 ^# P& \3 _  p+ K
Bit depth : 8 bits9 @, j/ ]3 I) e* N
Scan type : Progressive1 _7 a- x7 w4 R# C( w. ^, h
Bits/(Pixel*Frame) : 0.266
8 ]+ O* _- o2 J; i# I9 P3 ]( `Stream size : 5.44 GiB (94%)
6 Y( S' }' y. W1 J4 {) S$ dDefault : Yes4 _- ?- v. v/ i4 m+ k& B0 u# |
Forced : No/ @& j6 |) a  P$ z/ k' n4 O
Color range : Limited
8 S! Y7 X; U* W# r4 }Color primaries : BT.709/ W, n9 E+ |5 A2 O& D  ~" f9 Q, Q! A
Transfer characteristics : BT.709# ]) y; ~, q* ^/ l
Matrix coefficients : BT.709
+ S1 V  b4 S6 y
4 J: v4 C8 U* d# \. V9 l/ FAudio! P2 }0 b5 o4 d
ID : 23 P8 Y, r% H, ]9 H, C
Format : E-AC-34 l3 E2 D8 @3 }# t3 e
Format/Info : Enhanced AC-33 k- B" |% s! J7 h- P# R0 x7 |
Commercial name : Dolby Digital Plus% m2 u; g9 p4 v$ y, w
Codec ID : A_EAC3
1 X' k; R  v# I5 PDuration : 1 h 19 min2 z1 m" a' {* z. X
Bit rate mode : Constant7 r, Q2 I0 r- ^: z# p
Bit rate : 640 kb/s
) S# ?) |4 C; Y/ |, t, r% x" JChannel(s) : 6 channels3 ^* y2 G3 K4 s. C! Z
Channel layout : L R C LFE Ls Rs
  I' v' {5 ^0 c. W$ C: s! @Sampling rate : 48.0 kHz
3 X8 o) S4 ?' A4 d) r1 oFrame rate : 31.250 FPS (1536 SPF)
* k7 p, k! {9 ^* z% M. U- \* sCompression mode : Lossy
2 a# R5 O- x; N+ A/ n) p5 qStream size : 363 MiB (6%)0 v- \. f7 Y* B% r
Language : English
) [5 ?: a! J3 {, g/ B# b; tService kind : Complete Main+ _2 x- {5 z( D. M, ]+ ]) l
Default : Yes
/ ?- X* z, H/ L' g5 ^Forced : No
- ]2 f6 X* u$ ]+ H  P4 g& [
) T) i# ^4 j  v3 \' ?7 YText
( n- U& j2 T6 J3 t1 X6 SID : 3
& S( h2 l* O7 f$ D9 lFormat : UTF-85 k& ~) q2 q/ |% w6 ]
Codec ID : S_TEXT/UTF8
9 q& m5 q! n- tCodec ID/Info : UTF-8 Plain Text/ F. l7 K* M- D# ?% L
Duration : 1 h 19 min0 Q) I% l8 b- e+ e0 q8 _
Bit rate : 26 b/s, G5 |1 o& z( N9 `" E; K
Count of elements : 632
7 q9 M$ t3 K+ r6 W4 v4 pStream size : 15.6 KiB (0%)9 s9 S  M0 B4 {
Title : SDH4 |, I/ U' K- F% q3 u' R, Z0 h
Language : English
0 d6 Y) [+ O- ^: G$ A- NDefault : No

* q$ v- \& C# z' u. ?$ Y6 L( J* H) g% A; i" e; C" }4 f) g

4 S" v+ ~' u+ k9 Z6 E2 s. N

正義的子彈. MKV.torrent

29.54 KB, 下載次數: 75

回復樓主 親!! 下午好,中午養足了精神嗎?讓我們一起渡過下午茶時間,WK有您更精彩!

 分享同時學會感恩,一句感謝的話語,就是最大的支持!  歡迎交流討論
您需要登錄後才可以回帖 登錄 | 立即注册

本版積分規則

c重要聲明:本論壇是以即時上載言論的方式運作,WK論壇對所有言論的真實性、立場及版權等,不負任何法律責任。而一切言論只代表發佈者個人意見,並非本網站之立場,讀者及用戶務必自行判斷內容之真實性。 由於本論壇受到「即時上載言論」運作方式所規限,故不能完全監察所有言論,若讀者及用戶發現有內容出現「真實性、立場及版權」等問題,請聯絡我們:[email protected]論壇有權刪除任何言論(刪除前或不會作事先警告及通知)| SiteMap[網站地圖]

發表新帖 返回頂部