WK綜合論壇, WK综合论坛

查看:84 回復:2 發表於 昨天 15:34
本主題由 212love 於 昨天 07:56 刪除回復
累計簽到:2112 天
連續簽到:4 天
發表於 前天 09:11 | 顯示全部樓層 |閱讀模式
VIP精品區,資源無限好賺金任務區,輕松賺金幣
加入VIP,享受高級特權宣傳賺金又升級,超級棒

喪命之地 A.Deadly.Place., 2020.[MKV / 3.11G] [複製鏈接]

影視分享
分類: 電影
題材: 驚悚 
地區: 加拿大 
語言: 英语 
格式: MKV 
年份: 2020
資源: BT资源
1.png
, F  H0 n! T$ O2 K( W9 Y2 b$ E  [% R+ e- H1 @
◎译  名 丧命之地8 R% `" r, z' z1 n% L( G( U, u  ~# G
◎片  名 A Deadly Place
6 Y0 U" {' l; s# g◎年  代 2020
! B, x3 X  y7 j. l◎产  地 加拿大
9 n& E+ y( g9 w& ~3 _◎类  别 惊悚
0 C9 ?5 Y" C) n# _+ f3 [6 ~◎语  言 英语) B3 ~' l+ }. b5 U8 |8 _$ U
◎上映日期 2020-11-17(网络)1 C1 R0 I* q$ |
◎IMDb评分 4.1/10 from 17 users6 D, v8 L0 Y2 G+ ?$ b- Q7 Y
◎IMDb链接 https://www.imdb.com/title/tt8097362/
/ j. x( V* k- T9 d9 s* N◎豆瓣评分 /10 from 0 users
, V4 @4 ~1 ?/ \1 [( i0 K+ R◎豆瓣链接 https://movie.douban.com/subject/35258196/. d/ X) x% W2 u7 e% A" x2 M
◎片  长 83分钟
3 X$ k6 A" ~1 _. P( U
6 {0 M/ u$ Y. u. F5 m2 z9 ~) y) ^2 @◎简  介 % r& X/ x8 z# W1 i% [. P

- F4 ^$ Y2 }2 f% W" \: q  A woman returns home after her fathers death only to be reunited with friends of the family who behold secrets about her past that she will come to face in deadly measures./ E8 s" `3 B8 `7 h4 T
Video; Z, B+ l9 T) M+ l; x4 m
ID : 1
: k# \: G0 P0 ?2 e, BFormat : AVC
, k# I8 r; |+ z! LFormat/Info : Advanced Video Codec) G. n4 N5 ]' `: }2 j9 T
Format profile : [email protected]! m+ p9 U# c( y
Format settings : CABAC / 4 Ref Frames
8 s0 H& k' ^4 a$ I1 D9 B3 PFormat settings, CABAC : Yes6 D- M, Z  B( |( I4 Z
Format settings, Reference frames : 4 frames9 q6 T( U0 v3 q2 N% |; c) ~7 e
Codec ID : V_MPEG4/ISO/AVC
* V+ f; \" `8 |Duration : 1 h 23 min
1 p2 l% G. O; ^4 }/ VBit rate : 4 930 kb/s8 f) O3 w- y3 T7 q  R; d) E
Width : 1 920 pixels
& R1 |+ p& M* n. fHeight : 1 080 pixels. N  R4 w9 g7 `; Y
Display aspect ratio : 16:9+ O0 L6 o' C! h( o
Frame rate mode : Constant1 O  v$ o. @3 `7 P5 C
Frame rate : 23.976 (24000/1001/189150) FPS% ~; N- K5 h! k7 p  o  q  {" k
Color space : YUV; U% Z# H6 _; ^) j: v
Chroma subsampling : 4:2:0
- ^5 O+ b: S, z* w7 v& LBit depth : 8 bits- e4 u4 r+ D7 s% V- K( K9 p
Scan type : Progressive2 t6 v8 v8 b3 D; |  I. q5 F% `8 N$ G
Bits/(Pixel*Frame) : 0.0990 K. v- @. O& d4 F% s" p
Stream size : 2.89 GiB (93%)
% T" y0 M7 J! d+ e5 GTitle : A.Deadly.Place.2020.1080p.WEB-DL.DD5.1.H.264-FGT! t0 \4 o$ l! i
Language : English6 I) V" @6 r) H8 ~) t. n- j8 f
Default : Yes& C% O8 k0 e' M5 r% |
Forced : No+ q2 t$ n) }6 X5 b4 Z6 j
Color range : Limited7 r- t2 M. W, s' ]
Color primaries : BT.7090 ~  T3 u0 I, V
Transfer characteristics : BT.7099 x4 U. f& w/ G3 Q" {
Matrix coefficients : BT.709) b0 |# e" `; q
/ i4 Y. Q2 ~+ T
Audio
' L4 g/ V1 d, `3 b, nID : 2
* S# y. H( P. }1 m! D3 L3 ~Format : AC-3! E2 t* F! u# E- E
Format/Info : Audio Coding 3% _3 E& c  t7 ^4 E. Q
Commercial name : Dolby Digital, C$ _/ f& S) ^( B# o
Codec ID : A_AC3
5 K* m* `! _9 E8 wDuration : 1 h 23 min1 @* J) x$ x! Z: X1 ^- P2 K5 K! g
Bit rate mode : Constant
* O- S, |; l& GBit rate : 384 kb/s. a5 L6 V& |% @1 p+ [' ?: F
Channel(s) : 6 channels. {4 Y% p! g7 A% k9 p% I
Channel layout : L R C LFE Ls Rs# h' @( m1 ~; d6 l/ E
Sampling rate : 48.0 kHz7 `7 t. Y" K1 J" i) L
Frame rate : 31.250 FPS (1536 SPF)
6 `9 \: W" c* j/ MCompression mode : Lossy1 r$ i5 F9 j6 _' Y; R* y$ U* R& \
Stream size : 230 MiB (7%)
+ J+ n" f5 r+ V  pTitle : A.Deadly.Place.2020.1080p.WEB-DL.DD5.1.H.264-FGT
- n3 w! d! B" }; F  v& cLanguage : English
% D5 s9 Y* p* I/ Y: kService kind : Complete Main$ @) u0 b* O* Q) H  `$ i+ M
Default : Yes& c: g: _, W* g+ H* C9 @. r, D6 j
Forced : No
, \1 Y5 c5 X# j
3 \/ I* n) i( S' Q3 c  E2 H/ wText2 s, O& s7 T- _1 q! i- ?
ID : 3
% v& z+ T2 B- l# D: R6 [6 J% r# R. ?Format : UTF-8( b" Q$ G5 L% v  D& S4 c
Codec ID : S_TEXT/UTF8* Y: o& J4 b! x( a  A7 e
Codec ID/Info : UTF-8 Plain Text- h! y+ a" {3 ~; }  X' k
Duration : 1 h 9 min
- I( o1 h6 g- GBit rate : 31 b/s
5 s% B/ {% s7 k3 C7 c; m' TCount of elements : 708
! L8 g6 s* p- c' Q4 aStream size : 16.1 KiB (0%)5 ^& A8 S* h0 y* B4 K1 ?2 O
Language : English% j/ U3 K% B, v" V9 i- m
Default : Yes
3 Z/ K5 a. w' |" j- w8 @1 o# ]3 hForced : No
. \. o6 V/ y( t# a# ]
0 O! q, I+ Z4 G7 N$ m5 y

) m0 ?9 `: X1 ~: U3 S* ^

喪命之地. MKV.torrent

31.65 KB, 下載次數: 6

累計簽到:7 天
連續簽到:7 天
發表於 前天 16:15 | 顯示全部樓層
VIP精品區,資源無限好賺金任務區,輕松賺金幣
加入VIP,享受高級特權宣傳賺金又升級,超級棒
精妙絕倫的精品,感謝啊!期待你更多更好的創作哦!

尚未簽到

發表於 昨天 15:34 | 顯示全部樓層
████萝莉资源网【http://susn.fun】████, D! E/ J2 A, u  M
" l% q) B5 m- e/ U8 I
████萝莉资源网【http://susn.fun】████
) R7 [5 f/ T5 e& Y  o9 S
8 Q% b1 `+ }3 S████萝莉资源网【http://susn.fun】████/ [+ c+ u& h; o! I8 b$ `  D- {- p
' p$ g. S7 `) Y3 Q
████萝莉资源网【http://susn.fun】████; H- E% [3 T9 i9 D/ G/ E' E
. @/ I% v  |* Q; \. a' d' G) f
████萝莉资源网【http://susn.fun】████
/ U. u1 a: L, b& q4 [9 U/ `% n8 Z: \, N3 y5 {- E/ y
████萝莉资源网【http://susn.fun】████
! B; @2 l) Q9 J- r( m0 [' F+ w
  F9 q# |) q; }2 F2 k7 l6 ?████萝莉资源网【http://susn.fun】████
6 n3 Q1 c4 `1 E+ D9 X
* i4 ~" R/ `( [████萝莉资源网【http://susn.fun】████

回復樓主 親!! 現在是淩晨!妳失眠啦?餓啦?通宵加班?還是想WK啦?

 分享同時學會感恩,一句感謝的話語,就是最大的支持!  歡迎交流討論
您需要登錄後才可以回帖 登錄 | 立即注册

本版積分規則

c重要聲明:本論壇是以即時上載言論的方式運作,WK論壇對所有言論的真實性、立場及版權等,不負任何法律責任。而一切言論只代表發佈者個人意見,並非本網站之立場,讀者及用戶務必自行判斷內容之真實性。 由於本論壇受到「即時上載言論」運作方式所規限,故不能完全監察所有言論,若讀者及用戶發現有內容出現「真實性、立場及版權」等問題,請聯絡我們:[email protected]論壇有權刪除任何言論(刪除前或不會作事先警告及通知)| SiteMap[網站地圖]

發表新帖 返回頂部